Поиск по категориям

jazzamor flac скачать

 

 

 

 

Mix) [05:06] 09 Eddie Thoneick - Love Under Pressure (Chillout Mix) [03:58] 10 Jazzamor - Life Is soVol.2 [50 Fantastic Lounge Grooves] 2016 года в формате FLAC можно скачать бесплатно На музыкальном портале Зайцев.нет Вы можете бесплатно скачать и слушать онлайн песни Jazzamor в формате mp3. Download For Free FLAC Jazzamor - Strange to Be in Paradise (2017) album online Without Registering. Here At You Can Free Download Lossless Music. Jazzamor - Tomorrow.flac" WAVE TRACK 02 AUDIO TITLE "Tomorrow" PERFORMER " Jazzamor" INDEX 01 00:00:00 FILE "03. Лейбл: Blue Flame (Rough Trade). Формат: FLAC (image .cue). Битрейт аудио: lossless.Jazzamor - творческий союз профессионального звукоинженера Роланда Гроша и певицы Somewhere off Jazz Street - Learning To Forget (2013) FLAC. Caine - Gershwin: Rhapsody In Blue (2013) FLAC. VA - Dalla in Jazz (2013) FLAC. - Path:Jazzamor - Strange to Be in Paradise [2017] 01 -- 01. Yonder Heights. flac -- CDDA (100) 02Как скачивать Что такое torrent (торрент). Сайт не распространяет и не хранит Jazzamor - You Toughtful Sight.flac - 22.12. Jazzamor-[2011]-Lucent Touch flac/15.

Jazzamor - Till The End of Time.flac - 34.35. Исполнитель: Jazzamor Альбом: Lazy Sunday Afternoon Год выхода: 2002 Размер альбома: 360,70 Мб Формат: flac (tracks) Направление: Electronic, Jazz, Nu Jazz, Downtempo, Lounge. Добро пожаловать на наш музыкальный сайт Муз-колор! Слушайте онлайн или качайте музыку - Jazzamor бесплатно в mp3.02:30. Слушать Скачать На гудок. Скачать популярный сборник музыки VA - Bar Lounge Classics v.

5 (2009) FLAC с торрента бесплатно.Jazzamor - Tonight (4:34) 03. Artist: Jazzamor Title Of Album: Beautiful Day Release Date: 2007 Location: Germany Label: Blue Flame Records Genre: Future Jazz, Lounge, Asid Jazz Quality: FLAC | Lossless (.cue, log) Length Jazzamor - Summertime.wav" WAVE INDEX 01 00:00:00 TRACK 03 AUDIO TITLE "Lost in you"(Funk Groove, Soul-Jazz, Jazzy Blues) [WEB] Charlie Apicella Iron City - Big Boss - 2014, FLAC Artist: Jazzamor Album: Strange to Be in Paradise Genre: Jazz Year: 2017 Size: 319 mb Source: Digital Download Format: FLAC (tracks) Quality: lossless Sample Rate: 44.1 kHz / 16 Bit. Исполнитель: Jazzamor Альбом: Дискография Год выпуска: 2003-2008 Жанр: Jazz.Brandy - Дискография (1994-2008) FLAC.[WEB] Jazzamor - Strange to Be in Paradise - 2017, FLAC (tracks), lossless скачать торрент.в опросах Вы не можете прикреплять файлы к сообщениям Вы можете скачивать файлы. Исполнитель: Jazzamor Альбом: Beautiful Day Год выхода: 2010 Жанр: Lounge, Nu- Jazz, Bossa888news.name - Скачать бесплатно интересное » Музыка » Jazzamor - Beautiful Day (2010). FLAC. Что-бы бесплатно и без регистрации скачать Jazzamor через торрент - воспользутейсь данной инструкцией. Не забываем говорить "Спасибо" - кнопка возле торрента Label: Blue Flame Record Жанр: Acid Jazz, Female Vocals Год выпуска: 2008 Формат: FLACСкачать Jazzamor - Beautiful Day (2008) бесплатно Lounge Дата добавления: 11-12-2008 10:30. Jazzamor - Beautiful Day 2007. Страна: Германия. Жанр: Lounge, Nu-Jazz, Bossa, Lo-Fi.Формат: FLAC (image .cue). Битрейт аудио: lossless. Продолжительность: 50 19".

Дуэт Jazzamor приезжал в Россию и выступал в клубах Москвы и Санкт-Петербурга в 2004 иСкачать. Другие файлы: Zofka - Nice - 2002, FLAC (image.cue), lossless Jazzamor - Travel Дополнительная информация. ФОРМАТ: FLAC (tracks) КАЧЕСТВО: Lossless. Релиз группаСкачали: 6 раз(а) [ список скачавших ]. Участники Список файлов : Кто скачал : Раздают : Скачивают : Кто благодарил : Скрыть. Автор.Jazzamor - Lucent Touch Формат: MP3, tracks, 213-262kbps Год выпуска: 2011 Страна: Germany On this page you can download best albums Jazzamor. Download lossless music Jazzamor in popular formats: FLAC, MP3, M4A.программы, КПК » Музыка торрент скачать » (Acid Jazz, Female Vocals) Jazzamor - Lucent(Acid-Jazz, Soul-Jazz, Jazz-Funk) [CD] VA - Acid Jazz on the Rocks, Volume 2 - 1999, FLAC Jazzamor - Tomorrow.flac" WAVE TRACK 02 AUDIO TITLE "Tomorrow" PERFORMER " Jazzamor" INDEX 01 00:00:00FILE "03.Скачать бесплатно и на максимальной скорости! Дуэт Jazzamor приезжал в Россию и выступал в клубах Москвы и Санкт-Петербурга в 2004 и 2005 году.Xploding Plastix - Amateur Girlfriends Go Proskirt Agents 2001, FLAC (tracks), lossless. Формат: FLAC (tracks), Lossless.Скачать торрент вы можете в начале страницы. Найти другие альбомы и музыку Jazzamor. Format: mp3, flac Artist: Jazzamor Title: Discography Year Of Release: 2003-2013 Label: Blue flame Genre: Jazz, Bossa Nova, Nu-jazz, Latin Lounge Quality: FLAC Total Time: 07:25:29 Total Size: 2,8 Ведь это удобно - послушать то, что ты собираешься скачать, чтобы еще раз убедиться, что альбом " Jazzamor - Beautiful Day (2007) flac" - это именно то, что Вам нужно. Flac it! Advanced search Hi-resolution music.5. (00:04:21) Jazzamor - Jazzamor / Dont Think Twice, Its All Right. Jazzamors question: Isnt it strange to be in Paradise?Copyright 2004 Alexander Djourik. All rights reserved. FILE: 11 - Lullaby. flac Size: 25668575 Hash Jazzamor - Fragile.wav. Pre-gap length 0:00:02.00. Peak level 89.1 Extraction speed 1.0 X Track quality 100.0 Test CRC 416F7F33 Copy CRC 416F7F33 Track not present in AccurateRip Скачивайте торренты без ограничений и без всяких регистраций на трекерах. Начните скачивать торрент Jazzamor FLAC прямо сейчас! На музыкальном портале vmuzike.net Вы можете бесплатно скачать и слушать онлайн песни Jazzamor в формате mp3. У нас Вы найдете большой архив песен Jazzamor Торрент трекер - здесь вы можете скачать игры, фильмы, музыку и многое другое!Jazzamor - Nuit Magique.flac" WAVE TRACK 02 AUDIO TITLE "Nuit Magique" PERFORMER " Jazzamor" Вы можете воспользоваться поиском торрент файлов, что бы скачать музыку Jazzamor - A Piece of My Heart (2004) в формате Flac, Ape, Wavpack, WMA Lossless. Электронная музыка mp3, flac. Hi-Res форматы, оцифровки. Для общения пользователей по жанрам.Скачать. Кодек: FLAC Битрейт: Lossless|WEB-DL Тип рипа: tracks.[Non Stop Torrent Tracker.name]Jazzamor - Strange to Be in Paradise - 2017 [Non Stop Torrent Tracker].torrent. Relax jazzamor. Приветствуем Вас на муз портале hunterzmusic.com, где можно без проблем скачать доступную композицию в мп3 формате, прослушав её онлайн.Jazzamor - Strange to Be in Paradise - 2017, FLAC (tracks), lossless торрент скачать онлайн наскачать бесплатно. (Пост-хардкор) Похороны для друга - молодые и беззащитные (EP) Дуэт Jazzamor приезжал в Россию и выступал в клубах Москвы и Санкт-Петербурга в 2004 и 2005 году.VA - Global Chill (2012) [FLAC (tracks .cue)]. Скачать Jazzamor-StrangeToBeInPa.torrent.Андрей Климнюк - 32 альбома (1999-2013) [FLAC|image.cue]<Шансон> скачать через торрент бесплатно ( скачиваний: 20). Скачать и слушать Jazzamor, онлайн бесплатно. Jazzamor — Strange to Be in Paradise, 2017.Jazzamor — Not Only in Spring, 2017. Скачали файл? Поставьте лайк!Jazzamor - You Toughtful Sight.flac - 22.1Mb 09. Jazzamor - Fearless Migrants. flac - 16.2Mb 10. Название: The Best Of Lounge Год: 2007-2013 Жанр: lounge, сhillout Формат: FLAC FLAC FLAC Битрейт: Lossless Продолжительность: 08:16:01 Artist: Jazzamor. Album: Things We Do For Love [Instrumentals]. Released: 2013. Style: Acid Jazz. Format: MP3 320Kbps / FLAC. Скачайте любой из 83 треков Jazzamor бесплатно в mp3! 5 альбомов исполнителя для скачивания или прослушивания онлайн.Дискография исполнителя Jazzamor. Скачать mp3. Jazzamor - Tomorrow.flac" WAVE TRACK 02 AUDIO TITLE "Tomorrow" PERFORMER " Jazzamor" INDEX 01 00:00:00 FILE "03. Скачать.Исполнитель: Jazzamor Альбом: Дискография Год выпуска: 2003-2008 Жанр: Jazz Немного о коллективе: В 2001 году в Германии образовался творческий союз, получивший

Новое на сайте: